• Hallo liebe Userinnen und User,

    nach bereits längeren Planungen und Vorbereitungen sind wir nun von vBulletin auf Xenforo umgestiegen. Die Umstellung musste leider aufgrund der Serverprobleme der letzten Tage notgedrungen vorverlegt werden. Das neue Forum ist soweit voll funktionsfähig, allerdings sind noch nicht alle der gewohnten Funktionen vorhanden. Nach Möglichkeit werden wir sie in den nächsten Wochen nachrüsten. Dafür sollte es nun einige der Probleme lösen, die wir in den letzten Tagen, Wochen und Monaten hatten. Auch der Server ist nun potenter als bei unserem alten Hoster, wodurch wir nun langfristig den Tank mit Bytes vollgetankt haben.

    Anfangs mag die neue Boardsoftware etwas ungewohnt sein, aber man findet sich recht schnell ein. Wir wissen, dass ihr alle Gewohnheitstiere seid, aber gebt dem neuen Board eine Chance.
    Sollte etwas der neuen oder auch gewohnten Funktionen unklar sein, könnt ihr den "Wo issn da der Button zu"-Thread im Feedback nutzen. Bugs meldet ihr bitte im Bugtracker, es wird sicher welche geben die uns noch nicht aufgefallen sind. Ich werde das dann versuchen, halbwegs im Startbeitrag übersichtlich zu halten, was an Arbeit noch aussteht.

    Neu ist, dass die Boardsoftware deutlich besser für Mobiltelefone und diverse Endgeräte geeignet ist und nun auch im mobilen Style alle Funktionen verfügbar sind. Am Desktop findet ihr oben rechts sowohl den Umschalter zwischen hellem und dunklem Style. Am Handy ist der Hell-/Dunkelschalter am Ende der Seite. Damit sollte zukünftig jeder sein Board so konfigurieren können, wie es ihm am liebsten ist.


    Die restlichen Funktionen sollten eigentlich soweit wie gewohnt funktionieren. Einfach mal ein wenig damit spielen oder bei Unklarheiten im Thread nachfragen. Viel Spaß im ngb 2.0.

Mashup von Disco Deluxe rippen

one

Querulant

Registriert
21 Juli 2013
Beiträge
3.691
Ort
ja
1662782298629.png
 

Steev

:-)

Registriert
15 Juli 2013
Beiträge
32.948
Ort
192.168.0.160
Ich hatte vor kurzem mal ein Versuch mit .mp4 gemacht, das hat geklappt. .ts ist dabei aber logischer, da es sich ja um ein Live-Mitschnitt handelt.
Code:
General
ID                                       : 1 (0x1)
Complete name                            : deluxemusicstream.ts
Format                                   : MPEG-TS
Commercial name                          : HDV 720p
File size                                : 8.00 MiB
Duration                                 : 43 s 120 ms
Overall bit rate mode                    : Variable
Overall bit rate                         : 1 555 kb/s

Video
ID                                       : 256 (0x100)
Menu ID                                  : 1 (0x1)
Format                                   : MPEG Video
Commercial name                          : HDV 720p
Format version                           : Version 2
Format profile                           : Main@High 1440
Format settings, BVOP                    : No
Format settings, Matrix                  : Default
Format settings, GOP                     : Variable
Codec ID                                 : 2
Duration                                 : 43 s 160 ms
Bit rate mode                            : Variable
Bit rate                                 : 1 090 kb/s
Width                                    : 1 280 pixels
Height                                   : 720 pixels
Display aspect ratio                     : 16:9
Frame rate                               : 25.000 FPS
Color space                              : YUV
Chroma subsampling                       : 4:2:0
Bit depth                                : 8 bits
Scan type                                : Progressive
Compression mode                         : Lossy
Bits/(Pixel*Frame)                       : 0.047
Time code of first frame                 : 00:00:00:00
Time code source                         : Group of pictures header
GOP, Open/Closed                         : Open
GOP, Open/Closed of first frame          : Closed
Stream size                              : 5.61 MiB (70%)

Audio
ID                                       : 257 (0x101)
Menu ID                                  : 1 (0x1)
Format                                   : MPEG Audio
Format version                           : Version 1
Format profile                           : Layer 2
Codec ID                                 : 3
Duration                                 : 43 s 104 ms
Bit rate mode                            : Constant
Bit rate                                 : 384 kb/s
Channel(s)                               : 2 channels
Sampling rate                            : 48.0 kHz
Frame rate                               : 41.667 FPS (1152 SPF)
Compression mode                         : Lossy
Delay relative to video                  : -50 ms
Stream size                              : 1.97 MiB (25%)

Menu
ID                                       : 4096 (0x1000)
Menu ID                                  : 1 (0x1)
Duration                                 : 43 s 120 ms
List                                     : 256 (0x100) (MPEG Video) / 257 (0x101) (MPEG Audio)
Service name                             : Service01
Service provider                         : FFmpeg
Service type                             : digital television
 
Oben